بروزرسانی Special

دانلود رایگان فیلم The Lion King 2019

کیفیت BluRay X265 2160p TrueHD Atmos REMUX-FraMeSToR اضافه شد(نسخه HDR)

-*-*-*-*-*-*-*-*-*

صدای BluRay TrueHD 8CH Atmos Audio اضافه شد(زبان انگلیسی) | زمان: 01:58:14

کیفیت BluRay 2160p 4K X265 10Bit 8CH | PSA | نسخه HDR اضافه شد

کیفیت BluRay 1080p | Adit اضافه شد

کیفیت BluRay 1080p HQ X265 10Bit 8CH | PSA اضافه شد

کیفیت BluRay 1080p REMUX اضافه شد

کیفیت BluRay 4K 2160p UHD Atmos x265 | HQMUX اضافه شد

کیفیت BluRay 1080p X265 10Bit 8CH | PSA اضافه شد(جایگزین BRRip)

کیفیت BluRay 720p X265 10Bit 6CH | PSA اضافه شد(جایگزین BRRip)

کیفیت BluRay 1080p 10Bit X265 6CH | MKvCage اضافه شد

و....

نمونه کیفیت اضافه شد

دانلود فیلم The Lion King 2019 سینمایی

منتشر کننده : پرشین دانلود امتیاز : 10/7.1IMDB امتیاز منتقدین : 100/55m مدت زمان : 118 دقیقه زبان : English کیفیت : 2160p آنکودر : N/A حجم : N/A محصول : ایالات متحده آمریکا , ستارگان : Alfre Woodard , Amy Sedaris , Beyoncé Knowles , Billy Eichner , Chance the Rapper , کارگردان : Jon Favreau ,
1 برد
1 نامزد دیگر
خلاصه داستان :

پس از قتل پدرش، یک شاهزاده جوان از کشور خود می‌گریزد تا معنای واقعی مسئولیت‌پذیری و شجاعت را بیاموزد.

The Lion King 2019 UHD BluRay 2160p X265 10Bit TrueHD Atmos 7-1 REMUX-FraMeSToR

  • General

Format : Matroska
Format version : Version 4
File size : 49.7 GiB
Duration : 1 h 58 min
Overall bit rate mode : Variable
Overall bit rate : 60.2 Mb/s
Movie name : The Lion King 4K
Encoded date : UTC 2019-10-11 03:34:40
Writing application : mkvmerge v38.0.0 (‘The Silent Type’) 64-bit

Writing library : libebml v1.3.9 + libmatroska v1.5.2

 

  • VideoID : 1
    Format : HEVC
    Format/Info : High Efficiency Video Coding
    Format profile : Main ۱۰@L5.1@High
    HDR format : SMPTE ST 2086, HDR10 compatible
    Codec ID : V_MPEGH/ISO/HEVC
    Duration : 1 h 58 min
    Bit rate : 54.3 Mb/s
    Width : 3 840 pixels
    Height : 2 160 pixels
    Display aspect ratio : 16:9
    Frame rate mode : Constant
    Frame rate : 23.976 (24000/1001) FPS
    Color space : YUV
    Chroma subsampling : 4:2:0 (Type 2)
    Bit depth : 10 bits
    Bits/(Pixel*Frame) : 0.273
    Stream size : 44.8 GiB (90%)
    Writing library : ATEME Titan File 3.9.0 (4.9.0.0)
    Default : Yes
    Forced : No
    Color range : Limited
    Color primaries : BT.2020
    Transfer characteristics : PQ
    Matrix coefficients : BT.2020 non-constant
    Mastering display color primaries : Display P3
    Mastering display luminance : min: 0.0001 cd/m2, max: 1000 cd/m2

 

  • Audio #1
    ID : 2
    Format : MLP FBA 16-ch
    Format/Info : Meridian Lossless Packing FBA with 16-channel presentation
    Commercial name : Dolby TrueHD with Dolby Atmos
    Codec ID : A_TRUEHD
    Duration : 1 h 58 min
    Bit rate mode : Variable
    Bit rate : 4 929 kb/s
    Maximum bit rate : 7 332 kb/s
    Channel(s) : 8 channels
    Channel layout : L R C LFE Ls Rs Lb Rb
    Sampling rate : 48.0 kHz
    Frame rate : 1 200.000 FPS (40 SPF)
    Compression mode : Lossless
    Stream size : 4.07 GiB (8%)
    Title : TrueHD Atmos 7.1
    Language : English
    Default : Yes
    Forced : No
    Number of dynamic objects : 13
    Bed channel count : 1 channel
    Bed channel configuration : LFE

 

  • Audio #2
    ID : 3
    Format : AC-3
    Format/Info : Audio Coding 3
    Commercial name : Dolby Digital
    Codec ID : A_AC3
    Duration : 1 h 58 min
    Bit rate mode : Constant
    Bit rate : 640 kb/s
    Channel(s) : 6 channels
    Channel layout : L R C LFE Ls Rs
    Sampling rate : 48.0 kHz
    Frame rate : 31.250 FPS (1536 SPF)
    Compression mode : Lossy
    Stream size : 541 MiB (1%)
    Title : AC3 5.1
    Language : English
    Service kind : Complete Main
    Default : No
    Forced : No

 

  • Text #1
    ID : 4
    Format : PGS
    Codec ID : S_HDMV/PGS
    Codec ID/Info : Picture based subtitle format used on BDs/HD-DVDs
    Duration : 1 h 52 min
    Bit rate : 37.3 kb/s
    Count of elements : 3420
    Stream size : 29.8 MiB (0%)
    Title : English (SDH)
    Language : English
    Default : No
    Forced : No

 

  • Text #2
    ID : 5
    Format : PGS
    Codec ID : S_HDMV/PGS
    Codec ID/Info : Picture based subtitle format used on BDs/HD-DVDs
    Duration : 1 h 56 min
    Bit rate : 31.4 kb/s
    Count of elements : 2788
    Stream size : 26.2 MiB (0%)
    Title : French (Canadian)
    Language : French
    Default : No
    Forced : No

 

  • Text #3
    ID : 6
    Format : PGS
    Codec ID : S_HDMV/PGS
    Codec ID/Info : Picture based subtitle format used on BDs/HD-DVDs
    Duration : 1 h 55 min
    Bit rate : 25.9 kb/s
    Count of elements : 2556
    Stream size : 21.5 MiB (0%)
    Title : French (Parisian)
    Language : French
    Default : No
    Forced : No

 

  • Text #4
    ID : 7
    Format : PGS
    Codec ID : S_HDMV/PGS
    Codec ID/Info : Picture based subtitle format used on BDs/HD-DVDs
    Duration : 1 h 55 min
    Bit rate : 28.9 kb/s
    Count of elements : 2850
    Stream size : 24.0 MiB (0%)
    Title : German
    Language : German
    Default : No
    Forced : No

 

  • Text #5
    ID : 8
    Format : PGS
    Codec ID : S_HDMV/PGS
    Codec ID/Info : Picture based subtitle format used on BDs/HD-DVDs
    Duration : 1 h 55 min
    Bit rate : 28.1 kb/s
    Count of elements : 2716
    Stream size : 23.3 MiB (0%)
    Title : Italian
    Language : Italian
    Default : No
    Forced : No

 

  • Text #6
    ID : 9
    Format : PGS
    Codec ID : S_HDMV/PGS
    Codec ID/Info : Picture based subtitle format used on BDs/HD-DVDs
    Duration : 1 h 55 min
    Bit rate : 25.9 kb/s
    Count of elements : 2716
    Stream size : 21.4 MiB (0%)
    Title : Norwegian
    Language : Norwegian
    Default : No
    Forced : No

 

  • Text #7
    ID : 10
    Format : PGS
    Codec ID : S_HDMV/PGS
    Codec ID/Info : Picture based subtitle format used on BDs/HD-DVDs
    Duration : 1 h 46 min
    Bit rate : 32.7 kb/s
    Count of elements : 2742
    Stream size : 24.8 MiB (0%)
    Title : Spanish (Latin American)
    Language : Spanish
    Default : No
    Forced : No

 

  • Text #8
    ID : 11
    Format : PGS
    Codec ID : S_HDMV/PGS
    Codec ID/Info : Picture based subtitle format used on BDs/HD-DVDs
    Duration : 1 h 55 min
    Bit rate : 24.1 kb/s
    Count of elements : 1890
    Stream size : 20.0 MiB (0%)
    Title : Swedish
    Language : Swedish
    Default : No
    Forced : No

 

  • Menu
    ۰۰:۰۰:۰۰٫۰۰۰ : en:”Circle Of Life/Nants’ Ingonyama”
    ۰۰:۰۴:۵۰٫۴۹۹ : en:”Life’s Not Fair”
    ۰۰:۱۰:۵۱٫۰۶۷ : en:”Everything The Light Touches”
    ۰۰:۱۷:۴۷٫۶۹۲ : en:”I Just Can’t Wait To Be King”
    ۰۰:۲۳:۵۳٫۰۱۵ : en:Elephant Graveyard
    ۰۰:۳۰:۰۰٫۱۳۲ : en:Under The Stars
    ۰۰:۳۳:۰۵٫۰۶۶ : en:”Be Prepared”
    ۰۰:۳۷:۰۹٫۳۱۰ : en:Stampede
    ۰۰:۴۳:۴۲٫۹۱۲ : en:Scar Takes Over
    ۰۰:۵۰:۴۷٫۳۳۶ : en:Timon And Pumbaa
    ۰۰:۵۵:۰۲٫۷۱۶ : en:”Hakuna Matata”
    ۰۰:۵۹:۴۸٫۴۶۰ : en:Scar’s Kingdom
    ۰۱:۰۶:۲۷٫۲۳۳ : en:”Line Of Indifference”
    ۰۱:۱۴:۳۲٫۰۹۳ : en:”The Lion Sleeps Tonight”
    ۰۱:۱۸:۲۶٫۴۱۰ : en:”Can You Feel The Love Tonight”
    ۰۱:۲۳:۰۷٫۹۰۰ : en:”He Lives In You”
    ۰۱:۲۸:۰۴٫۶۵۴ : en:”Spirit”
    ۰۱:۳۳:۱۰٫۸۷۷ : en:Simba Confronts Scar
    ۰۱:۳۷:۱۳٫۷۴۵ : en:Battle For Pride Rock
    ۰۱:۴۴:۳۹٫۱۹۰ : en:The Rightful King
    ۰۱:۴۷:۴۷٫۳۳۶ : en:End Credits/”Never Too Late”

BluRay.1080p.REMUX.AVC.DTS-HD.MA.TrueHD.7.1.Atmos-FGT

Video
ID : 1
Format : AVC
Format/Info : Advanced Video Codec
Format profile : High@L4.1
Format settings : CABAC / 4 Ref Frames
Format settings, CABAC : Yes
Format settings, Reference frames : 4 frames
Codec ID : V_MPEG4/ISO/AVC
Duration : 1 h 58 min
Bit rate mode : Variable
Bit rate : 27.6 Mb/s
Maximum bit rate : 35.0 Mb/s
Width : 1 920 pixels
Height : 1 080 pixels
Display aspect ratio : 16:9
Frame rate mode : Constant
Frame rate : 23.976 (24000/1001) FPS
Color space : YUV
Chroma subsampling : 4:2:0
Bit depth : 8 bits
Scan type : Progressive
Bits/(Pixel*Frame) : 0.554
Stream size : 22.8 GiB (69%)
Title : The.Lion.King.2019.1080p.BluRay.REMUX.AVC.DTS-HD.MA.TrueHD.7.1.Atmos-FGT
Language : English
Default : No
Forced : No

 

Audio #1
ID : 2
Format : MLP FBA 16-ch
Format/Info : Meridian Lossless Packing FBA with 16-channel presentation
Commercial name : Dolby TrueHD with Dolby Atmos
Codec ID : A_TRUEHD
Duration : 1 h 58 min
Bit rate mode : Variable
Bit rate : 4 929 kb/s
Maximum bit rate : 7 332 kb/s
Channel(s) : 8 channels
Channel layout : L R C LFE Ls Rs Lb Rb
Sampling rate : 48.0 kHz
Frame rate : 1 200.000 FPS (40 SPF)
Compression mode : Lossless
Stream size : 4.07 GiB (12%)
Title : The.Lion.King.2019.1080p.BluRay.REMUX.AVC.DTS-HD.MA.TrueHD.7.1.Atmos-FGT
Language : English
Default : Yes
Forced : No
Number of dynamic objects : 13
Bed channel count : 1 channel
Bed channel configuration : LFE

 

Audio #2
ID : 3
Format : DTS XLL
Format/Info : Digital Theater Systems
Commercial name : DTS-HD Master Audio
Codec ID : A_DTS
Duration : 1 h 58 min
Bit rate mode : Variable
Bit rate : 5 091 kb/s
Channel(s) : 8 channels
Channel layout : C L R LFE Lb Rb Lss Rss
Sampling rate : 48.0 kHz
Frame rate : 93.750 FPS (512 SPF)
Bit depth : 24 bits
Compression mode : Lossless
Stream size : 4.21 GiB (13%)
Title : The.Lion.King.2019.1080p.BluRay.REMUX.AVC.DTS-HD.MA.TrueHD.7.1.Atmos-FGT
Language : English
Default : No
Forced : No

 

Audio #3
ID : 4
Format : AC-3
Format/Info : Audio Coding 3
Commercial name : Dolby Digital
Codec ID : A_AC3
Duration : 1 h 58 min
Bit rate mode : Constant
Bit rate : 640 kb/s
Channel(s) : 6 channels
Channel layout : L R C LFE Ls Rs
Sampling rate : 48.0 kHz
Frame rate : 31.250 FPS (1536 SPF)
Bit depth : 16 bits
Compression mode : Lossy
Stream size : 541 MiB (2%)
Title : The.Lion.King.2019.1080p.BluRay.REMUX.AVC.DTS-HD.MA.TrueHD.7.1.Atmos-FGT
Language : English
Service kind : Complete Main
Default : No
Forced : No

 

Audio #4
ID : 5
Format : AC-3
Format/Info : Audio Coding 3
Commercial name : Dolby Digital
Codec ID : A_AC3
Duration : 1 h 58 min
Bit rate mode : Constant
Bit rate : 320 kb/s
Channel(s) : 2 channels
Channel layout : L R
Sampling rate : 48.0 kHz
Frame rate : 31.250 FPS (1536 SPF)
Bit depth : 16 bits
Compression mode : Lossy
Stream size : 271 MiB (1%)
Title : The.Lion.King.2019.1080p.BluRay.REMUX.AVC.DTS-HD.MA.TrueHD.7.1.Atmos-FGT
Language : English
Service kind : Complete Main
Default : No
Forced : No

 

Audio #5
ID : 6
Format : AC-3
Format/Info : Audio Coding 3
Commercial name : Dolby Digital
Codec ID : A_AC3
Duration : 1 h 58 min
Bit rate mode : Constant
Bit rate : 640 kb/s
Channel(s) : 6 channels
Channel layout : L R C LFE Ls Rs
Sampling rate : 48.0 kHz
Frame rate : 31.250 FPS (1536 SPF)
Bit depth : 16 bits
Compression mode : Lossy
Stream size : 541 MiB (2%)
Title : The.Lion.King.2019.1080p.BluRay.REMUX.AVC.DTS-HD.MA.TrueHD.7.1.Atmos-FGT
Language : French
Service kind : Complete Main
Default : No
Forced : No

 

Audio #6
ID : 7
Format : AC-3
Format/Info : Audio Coding 3
Commercial name : Dolby Digital
Codec ID : A_AC3
Duration : 1 h 58 min
Bit rate mode : Constant
Bit rate : 640 kb/s
Channel(s) : 6 channels
Channel layout : L R C LFE Ls Rs
Sampling rate : 48.0 kHz
Frame rate : 31.250 FPS (1536 SPF)
Bit depth : 16 bits
Compression mode : Lossy
Stream size : 541 MiB (2%)
Title : The.Lion.King.2019.1080p.BluRay.REMUX.AVC.DTS-HD.MA.TrueHD.7.1.Atmos-FGT
Language : Spanish
Service kind : Complete Main
Default : No
Forced : No

 

Audio #7
ID : 8
Format : AC-3
Format/Info : Audio Coding 3
Commercial name : Dolby Digital
Codec ID : A_AC3
Duration : 1 h 58 min
Bit rate mode : Constant
Bit rate : 192 kb/s
Channel(s) : 2 channels
Channel layout : L R
Sampling rate : 48.0 kHz
Frame rate : 31.250 FPS (1536 SPF)
Bit depth : 16 bits
Compression mode : Lossy
Stream size : 162 MiB (0%)
Title : The.Lion.King.2019.1080p.BluRay.REMUX.AVC.DTS-HD.MA.TrueHD.7.1.Atmos-FGT
Language : English
Service kind : Complete Main
Default : No
Forced : No

 

Text #1
ID : 9
Format : UTF-8
Codec ID : S_TEXT/UTF8
Codec ID/Info : UTF-8 Plain Text
Duration : 1 h 50 min
Bit rate : 49 b/s
Count of elements : 1547
Stream size : 40.0 KiB (0%)
Title : English-SRT
Language : English
Default : Yes
Forced : No

 

Text #2
ID : 10
Format : UTF-8
Codec ID : S_TEXT/UTF8
Codec ID/Info : UTF-8 Plain Text
Duration : 1 h 52 min
Bit rate : 55 b/s
Count of elements : 1738
Stream size : 45.1 KiB (0%)
Title : English-SDH-SRT
Language : English
Default : No
Forced : No

 

Text #3
ID : 11
Format : PGS
Muxing mode : zlib
Codec ID : S_HDMV/PGS
Codec ID/Info : Picture based subtitle format used on BDs/HD-DVDs
Duration : 1 h 52 min
Bit rate : 37.5 kb/s
Count of elements : 3420
Stream size : 30.0 MiB (0%)
Title : English-PGS
Language : English
Default : No
Forced : No

 

Text #4
ID : 12
Format : PGS
Muxing mode : zlib
Codec ID : S_HDMV/PGS
Codec ID/Info : Picture based subtitle format used on BDs/HD-DVDs
Duration : 1 h 56 min
Bit rate : 31.5 kb/s
Count of elements : 2788
Stream size : 26.4 MiB (0%)
Title : French-PGS
Language : French
Default : No
Forced : No

 

Text #5
ID : 13
Format : PGS
Muxing mode : zlib
Codec ID : S_HDMV/PGS
Codec ID/Info : Picture based subtitle format used on BDs/HD-DVDs
Duration : 1 h 46 min
Bit rate : 32.7 kb/s
Count of elements : 2742
Stream size : 24.8 MiB (0%)
Title : Spanish-PGS
Language : Spanish
Default : No
Forced : No

 

Text #6
ID : 14
Format : PGS
Muxing mode : zlib
Codec ID : S_HDMV/PGS
Codec ID/Info : Picture based subtitle format used on BDs/HD-DVDs
Duration : 1 h 53 min
Bit rate : 70.1 kb/s
Count of elements : 4030
Stream size : 56.8 MiB (0%)
Title : English-COMMENTARY-PGS
Language : English
Default : No
Forced : No

Text #7
ID : 15
Format : PGS
Muxing mode : zlib
Codec ID : S_HDMV/PGS
Codec ID/Info : Picture based subtitle format used on BDs/HD-DVDs
Duration : 1 h 53 min
Bit rate : 58.8 kb/s
Count of elements : 3980
Stream size : 47.7 MiB (0%)
Title : French-COMMENTARY-PGS
Language : French
Default : No
Forced : No

 

Text #8
ID : 16
Format : PGS
Muxing mode : zlib
Codec ID : S_HDMV/PGS
Codec ID/Info : Picture based subtitle format used on BDs/HD-DVDs
Duration : 1 h 53 min
Bit rate : 60.5 kb/s
Count of elements : 3978
Stream size : 49.0 MiB (0%)
Title : Spanish-COMMENTARY-PGS
Language : Spanish
Default : No
Forced : No

 

Text #9
ID : 17
Format : PGS
Muxing mode : zlib
Codec ID : S_HDMV/PGS
Codec ID/Info : Picture based subtitle format used on BDs/HD-DVDs
Duration : 1 h 51 min
Bit rate : 49.1 kb/s
Count of elements : 1921
Stream size : 39.0 MiB (0%)
Title : English-SDH-PGS
Language : English
Default : No
Forced : No

 

Text #10
ID : 18
Format : PGS
Muxing mode : zlib
Codec ID : S_HDMV/PGS
Codec ID/Info : Picture based subtitle format used on BDs/HD-DVDs
Duration : 1 h 46 min
Bit rate : 23.3 kb/s
Count of elements : 1135
Stream size : 17.7 MiB (0%)
Title : French-PGS
Language : French
Default : No
Forced : No

Text #11
ID : 19
Format : PGS
Muxing mode : zlib
Codec ID : S_HDMV/PGS
Codec ID/Info : Picture based subtitle format used on BDs/HD-DVDs
Duration : 1 h 46 min
Bit rate : 18.6 kb/s
Count of elements : 1061
Stream size : 14.1 MiB (0%)
Title : Spanish-PGS
Language : Spanish
Default : No
Forced : No

 

Text #12
ID : 20
Format : PGS
Muxing mode : zlib
Codec ID : S_HDMV/PGS
Codec ID/Info : Picture based subtitle format used on BDs/HD-DVDs
Duration : 1 h 49 min
Bit rate : 393 b/s
Count of elements : 48
Stream size : 316 KiB (0%)
Title : French-FORCED-PGS
Language : French
Default : No
Forced : No

 

Text #13
ID : 21
Format : PGS
Muxing mode : zlib
Codec ID : S_HDMV/PGS
Codec ID/Info : Picture based subtitle format used on BDs/HD-DVDs
Duration : 1 h 43 min
Bit rate : 20 b/s
Count of elements : 4
Stream size : 15.5 KiB (0%)
Title : Spanish-FORCED-PGS
Language : Spanish
Default : No
Forced : No

The.Lion.King.2019.2160p.UHD.BluRay.Atmos.x265.HQMUX

GENERAL
Container…….: Matroska
Size…………: 28.2 GiB
Duration……..: 1 h 58 min
Release Date….: 12.10.2019
VIDEO
Codec………..: V_MPEGH/ISO/HEVC
Format……….: HEVC
Format profile..: Main 10@L5.1@High
Resolution….. : 3840 x 2160 pixels
Aspect ratio… : 16:9
Bit rate……..: 27.3 Mb/s
Frame rate……: 23.976 fps
AUDIO 1
Format……….: MLP FBA 16-ch
Format profile..: Dolby TrueHD with Dolby Atmos
Channels……..: 8 channels
Sample rate…..: 48 kHz
Bit rate……..: 4929 kbps
Language……..: English
AUDIO 2
Format……….: E-AC3
Channels……..: 8 channels
Bit rate……..: 1536 kbps
Language……..: English
SUBTITLES
Format……….: PGS (original)
Language(s)…..: English (SDH), French (Canadian), French (Parisian), German, Italian, Norwegian,
Spanish (Latin American), Swedish

The.Lion.King.2019.1080p.BluRay.6CH.Pahe

General
Unique ID : 210743292732448864466972811397186588886 (0x9E8BAE8AC96D13BFA5E38FFDF2CA10D6)
Complete name : F:\The.Lion.King.2019.1080p.BluRay.x264.6CH-Pahe.in.mkv
Format : Matroska
Format version : Version 4
File size : 2.75 GiB
Duration : 1 h 58 min
Overall bit rate : 3 330 kb/s
Encoded date : UTC 2019-10-11 17:47:18
Writing application : mkvmerge v24.0.0 (‘Beyond The Pale’) 64-bit
Writing library : libebml v1.3.6 + libmatroska v1.4.9
Cover : Yes
Attachments : cover.jpg
Encoded by : Pahe.in™ | https://pahe.in

Video
ID : 1
Format : AVC
Format/Info : Advanced Video Codec
Format profile : High@L4.1
Format settings : CABAC / 4 Ref Frames
Format settings, CABAC : Yes
Format settings, ReFrames : 4 frames
Codec ID : V_MPEG4/ISO/AVC
Duration : 1 h 58 min
Bit rate : 3 057 kb/s
Width : 1 920 pixels
Height : 1 080 pixels
Display aspect ratio : 16:9
Frame rate mode : Constant
Frame rate : 23.976 (24000/1001) FPS
Color space : YUV
Chroma subsampling : 4:2:0
Bit depth : 8 bits
Scan type : Progressive
Bits/(Pixel*Frame) : 0.061
Stream size : 2.53 GiB (92%)
Writing library : x264 core 155 r2901 7d0ff22
Encoding settings : cabac=1 / ref=4 / deblock=1:-3:-3 / analyse=0x3:0x133 / me=umh / subme=10 / psy=1 / psy_rd=1.00:0.15 / mixed_ref=1 / me_range=32 / chroma_me=1 / trellis=2 / 8x8dct=1 / cqm=0 / deadzone=21,11 / fast_pskip=0 / chroma_qp_offset=-3 / threads=24 / lookahead_threads=4 / sliced_threads=0 / nr=0 / decimate=0 / interlaced=0 / bluray_compat=0 / constrained_intra=0 / bframes=8 / b_pyramid=2 / b_adapt=2 / b_bias=0 / direct=3 / weightb=1 / open_gop=0 / weightp=2 / keyint=250 / keyint_min=23 / scenecut=40 / intra_refresh=0 / rc_lookahead=60 / rc=crf / mbtree=0 / crf=25.3 / qcomp=0.60 / qpmin=0 / qpmax=69 / qpstep=4 / vbv_maxrate=33500 / vbv_bufsize=30000 / crf_max=0.0 / nal_hrd=none / filler=0 / ip_ratio=1.30 / pb_ratio=1.20 / aq=3:0.80
Default : Yes
Forced : No

Audio
ID : 2
Format : AAC LC
Format/Info : Advanced Audio Codec Low Complexity
Codec ID : A_AAC-2
Duration : 1 h 58 min
Bit rate : 259 kb/s
Channel(s) : 6 channels
Channel layout : C L R Ls Rs LFE
Sampling rate : 48.0 kHz
Frame rate : 46.875 FPS (1024 SPF)
Compression mode : Lossy
Delay relative to video : 9 ms
Stream size : 219 MiB (8%)
Language : English
Default : No
Forced : No

Text #1
ID : 3
Format : PGS
Muxing mode : zlib
Codec ID : S_HDMV/PGS
Codec ID/Info : Picture based subtitle format used on BDs/HD-DVDs
Duration : 1 h 52 min
Bit rate : 37.5 kb/s
Count of elements : 3420
Stream size : 30.0 MiB (1%)
Language : English
Default : Yes
Forced : No

Text #2
ID : 4
Format : UTF-8
Codec ID : S_TEXT/UTF8
Codec ID/Info : UTF-8 Plain Text
Duration : 1 h 50 min
Bit rate : 49 b/s
Count of elements : 1483
Stream size : 40.1 KiB (0%)
Language : English
Default : No
Forced : No

 

اموزش چسباندن صوت به فیلم

کیفیت:BluRay TrueHD 8CH Atmos Audio (زبان انگلیسی) | زمان: 1:58:14حجم:4.12 GBصوت دوبله

پیشنمایش

برچسب ها

, , , , , , , , , , , , , , , , , , , , , , , , , , , , , , , , , , , , , , , , , , , , , , , , , , , , , , , , , , , , , , , , , , , , , , , , , , , , , , , , , , , , , , , , , , , , , , , , , , , , , , , , , , , , , , , , , , , , , , , , , , , , , , , , , , , , , , , , , , , , ,

55 دیدگاه

  • سلام درود بر شما سایت توپی داری دمت گرم یک بار قبلا پیام دادم دیدم سریع اقدام کردی و انجام دادی خیلی باهات حال کردم ولی دوباره فراموش کردین یکی ازواجبات سایت فیلم مخصوصا شما که بروز هستید نمونه کیفیت هست قبل از دانلود حدود کیفیت دستمون بیاد یا اگر پخش انلاین بزاری که دیگه آخرشی موفق و پیروز باشی
    • سلام دوست عزیز کیفیت های WEBRip و BluRay با حجم معمولی اکثرا یکی هستن و شباهتی زیادی ندارن ولی خب واسه فیلمای پرده سینما HDCam - HDTC تفاوت هایی وجود دارن که واسه این کیفیت نمونه کیفیت میزاریم یا مثلا کیفیت 4k - Full HD که حجم بالایی دارن نمونه کیفیت میزاریم
  • سلام دادش ، من هم الان براتون یه لیستی از بهترین سریالهای جهان رو بنویسم تا اگر امکانش هست اونارو قرار بدید توی سایتتون .Game of thronesVikingsDexterThe blacklistBlindspotThe 100ArrowThe flashAgents of s.h.i.e.l.d( Criminal 2019 ( uk / spa / fra / gerLegionDarkDesignated surviverBreaking badStrange angelBlack mirrorDaredevilAncient aliensHoe the universe worksHannibalNarcosThe mentalistTake towMarco poloThe wireStart upCardinalColonyCollateralCosmos A spacetime odysseyThe city and the cityRansomOnce upon a timeTakenScandal usGothamSuitsThe americansCriminal mindsBillionsinstinctTrustDeceptionSirenHomelandTimelessUnsolvedMarcellaCounterpartThe alienistAmerican crime storyHow to get away with murderKryptonThe expanse13reasons whyGomorraGypsyContinuumMarcellaA series of unfortunate eventsRiverdaleLuciferChannel zeroFalling waterThe crossingThe giftedLethal weaponBoschLost in spaceAlias graceStitchersWest worldCode black3% یا 3percentThrough the wormholeAmerican horror storyGhost warsS.w.a.tEl.chapoGlitchUmbreDeep stateThe looming towerBron broenHouse M.DMcMafiainto the badlandsRunawaysSeven secondsRomeTop of the lakeStrikeThe goode wifeThe handmaids taleThe man in the high castleThe mechanismThe night ofThe returnedTravelersTrue bloodWacoWayward pinesWentworthWithe collarGeniusQuanticoMad menBetter call saulBad banksSafeThe crossingNikitaBarbarians risingYou are wantedHumansSave meKilling eveThe knickThe young popeLa catedral del marPatrick melroseMarvels cloak and daggerJames Camerons Story Of Science FictionIceSuccessionBulletproofGoliathHiddenThe affairCondorReverieFringeMerlinAnd then there were noneBittenBlack sailsBloodlineBoardwalk epireBraindeadDa vincis deamonsDeadwoodThe sopranosThe staircaseSense 8Hotel beau sejourLa casa de paple aka money heistLa mantethe OAThe crownLongmireSharp objectsCastle rockYellowstoneThe outpostSouthlandPenny dreadfulGhuolHemlock graveThe innocentsJohn adams12monkeysStan lees lucky manBody guardDark tuoristFive game backOne strange rockAbstract the art of desinThe putin interviewsSnowfallTom clancys jak ryanMr mercedesOzarkSalemSons of anarchyBates motelThe good doctorThe missingThe deuceThe tudorsSicarioAmerican vandalManiacThe looming towerThe last shipمن این لیست رو جزئی از سریالها نوشتم و به ترتیب نمره Imdb ننوشتم اما همه این سریالهایی که نام بردم با نمره 7 از 10 به بالا و با ژانر : درام ، ترسناک ، اکشن ، رمز و راز ، معمایی ، تاریخی ، جنگی ، کوتاه ، فانتزی ، وحشت آور ، تخیلی ، مستند ، هیجانی ، رازآلود هستند .ان شاء الله به امید اینکه رنج آرشیو سریالاتون رو ببرید بالا .با تشکر فراوان از تمام زحمات بیکران شما آقای گل ( یاسین ) عزیز و تمام اندرکاران سایت پرشین دانلود
  • این میزان از جلوه‌های ویژه و جزئیات رو به هیچ وجه نمیشه با فایل‌های 5 – 6 گیگ تجربه کرد.البته دوستانی که حجم‌های پایین دانلود میکنن حق دارن چون سرعت و حجم اینترنت محدوده.اما می‌تونید با اینترنت شبانه همراه اول (1 ماهه 2 تا 7 صبح 10 هزارتومن، 1 ماهه 1 تا 11 صبح 20 هزارتومن) به راحتی هر شب بیش بین 40 تا 100 گیگ دانلود کنید (بستگی به نوع بسته و آنتن دهی داره).به سایت همراه اول برید و از قسمت نوترینو، در فیلد “نوع بسته” نامحدود شبانه رو انتخاب کنید. می‌تونید 1 روزه، ا هفته، یا 1 ماهه انتخاب کنید.مودم 4G هم می‌تونید بخرید اما الزامی نیست، با گوشی هم می‌تونید دانلود کنید.حتی می‌تونید گوشی رو به عنوان مودم به کامپیوتر معرفی کنید که فیلم‌ها روی هارد کامپیوتر ذخیره بشن. با IDM هم قابل کنترله. من خودم تمام فیلم‌هام رو همینجوری دانلود می‌کنم.به نظرم حداقل برای فیلم‌های علمی/تخیلی – اکشن – ترسناک که براتون خاص هستن و جلوه‌های ویژه سنگین دارن کیفیت اصلی دانلود کنید. تفاوت کیفیت صدا و تصویر خیلی زیاده.
  • سلام خسته نباشین.من کاربر سایت فردادانلود بودم که متاسفانه بسته شد چندروزی هست سایت شما آشنا شدم. همیشه کیفیت 720 اچ دی قرار میداد اون سایت. امکانش هست شما هم این کیفیت قرار بدید ممنون از سایت خوبتونThe.Lion.King.2019.BluRay.720p.x264.DTS-HDChina – 6.5 GB
  • بسیار عالیه که کیفیت remux با صدای truehd رو گذاشتید. کیفیت صدای این کدک واقعا بی نظیره. تنها سایت فردا دانلود از بین سایت های ایرانی بود که کیفیت remux رو قرار میداد واسه خیلی از فیلم ها. امیدوارم که از این کیفیت واسه فیلم های بیشاری آپلود کنید. با تشکرفراروان از سایت عالیتون.
  • سلام ادمین جانهرچند که سوال من که میخوام بپرسم جاش اینجا نیست اما اگر امکانش هست میشه آموزش چسباندن زیرنویس به فیلم در نرم افزار easy subtitle در آندروید برای پخش کردن فیلم در تلویزیون .اگر امکانش هست آموزش رو برام بفرستید روی gmail ، ممنون میشمKingofblack2016@gmail.com
  • توجه کاربران: دوستانی که ریماکس درخواست میکنن باید عرض کنم که از ترکرهایی که استفاده میکنیم هنوز منتشر نشده به محض انتشار جایگزین کیفیت بالایی خواهد شد
  • با سلام الحق و الانصاف اشهد ان سایت شما در نوع کیفیک و تنوع انکودر در ایران اول هستید و احسنت میگم به شما ، من کاربر سایت فردا دانلود هستم و موقعی که وارد سایتتون شدم و دیدم که کلی واسه این فیلم کیفیت و انواع انکودر گذاشتید خیلی کیف کردم ، احسنت و بارک الله به شما و خسته نباشید
  • سلام مرسی که فیلم های پر مخاطب قرار میدین . اگر امکانش هست فیلم ترسناک ماجرایی prey 2019 رو با زیرنویس فارسی قرار بدین . ممنون  :)
+ +